Fichier vidéo en format Matroska - Son saccadé d'un fichier-vidéo
Forum DivX de Ri4m - Encoder et réencoder les videos - DivX - XviD - RV10 - RV9 - VP6 - VP7

Bienvenue invité ( Connexion | Inscription )

> Charte du forum

Réglement intérieur du forum : La loi interdit la récupération "sauvage" des films sur internet, n'est tolérée que la "copie de sauvegarde personnelle". TOUTE mention à une activité "hors la loi" sera sanctionnée directement par une fermeture du sujet voire un avertissement ...

Ripp-it Te@m

 
Reply to this topicStart new topic
roetjas
posté 13/01/2011 23:37
Message #1


Ouvreur
Icône de groupe

Groupe : Membres
Messages : 4
Inscrit : 13/01/2011
Membre no 55.776



Bonjour,

Je ne sais pas si votre forum pourra m'aider. Je vous explique mon problème.

J'ai un fichier-vidéo en format Matroska qui a un son très saccadé et déphasé par rapport à l'image lorsque je le visionne sur le lecteur Windows Media et aussi sur le lecteur Media Player Classic. Que devrais-je faire pour le visionner correctement ?

Merci de votre aide.

Voici les caractéristiques du fichier-vidéo:

Format : Matroska
File size : 1.81 GiB
Duration : 50mn 0s
Overall bit rate : 5 191 Kbps
Writing application : DivXMKVMux 3.2.0.0252
Writing library : libDivXMediaFormat 3.2.0.0252

Video
ID : 1
Format : AVC
Format/Info : Advanced Video Codec
Format profile : High@L4.0
Format settings, CABAC : Yes
Format settings, ReFrames : 4 frames
Muxing mode : Container profile=Unknown@0.4
Codec ID : V_MPEG4/ISO/AVC
Duration : 50mn 0s
Bit rate mode : Variable
Bit rate : 4 703 Kbps
Maximum bit rate : 20.0 Mbps
Width : 1 440 pixels
Height : 1 080 pixels
Display aspect ratio : 16:9
Frame rate : 25.000 fps
Standard : PAL
Color space : YUV
Chroma subsampling : 4:2:0
Bit depth : 8 bits
Scan type : Progressive
Bits/(Pixel*Frame) : 0.121
Stream size : 1.64 GiB (91%)
Language : English
Color primaries : BT.709-5, BT.1361, IEC 61966-2-4, SMPTE RP177
Transfer characteristics : BT.709-5, BT.1361
Matrix coefficients : BT.709-5, BT.1361, IEC 61966-2-4 709, SMPTE RP177

Audio
ID : 2
Format : AC-3
Format/Info : Audio Coding 3
Mode extension : CM (complete main)
Codec ID : A_AC3
Duration : 50mn 0s
Bit rate mode : Constant
Bit rate : 384 Kbps
Channel(s) : 6 channels
Channel positions : Front: L C R, Side: L R, LFE
Sampling rate : 48.0 KHz
Bit depth : 16 bits
Stream size : 137 MiB (7%)
Language : English

Aller en haut de la page
 
+Citer le message
YannBresil
posté 14/01/2011 01:22
Message #2


Ri(n)oModo
Icône de groupe

Groupe : Super Modérateurs
Messages : 7.488
Inscrit : 18/10/2003
Lieu : Manaus, au centre de l'Amazonie
Membre no 443



Le bitrate est très élévé, ton pc ne doit pas être assez puissant. Réencode en mettant un bitrate plus bas (+-2000)
Aller en haut de la page
 
+Citer le message
roetjas
posté 14/01/2011 03:45
Message #3


Ouvreur
Icône de groupe

Groupe : Membres
Messages : 4
Inscrit : 13/01/2011
Membre no 55.776



Bonjour,

J'ai téléchargé et installé votre logiciel Ripp-it_AM sur mon PC. Mais lorsque je veux l'ouvrir pour l'utiliser, mon système me dit qu'il y a un ''raccourcit manquant'' et alors il m'est imposible de l'utiliser. Que faire ?

Merci

Ce message a été modifié par roetjas - 14/01/2011 03:47.
Aller en haut de la page
 
+Citer le message
SG1
posté 14/01/2011 15:16
Message #4


Producteur
Icône de groupe

Groupe : Rédacteurs
Messages : 6.271
Inscrit : 08/10/2004
Lieu : Un coin perdu du Gers (32)
Membre no 4.657



Bonjour,

Sous quel système es-tu ?

Vérifie dans Program Files si Ri4m est correctement installé...

Est-ce que ton antivirus n'a pas bloqué l'installation (Ça arrive parfois avec certains antivirus un peu parano) ?

@+
Aller en haut de la page
 
+Citer le message
roetjas
posté 15/01/2011 02:22
Message #5


Ouvreur
Icône de groupe

Groupe : Membres
Messages : 4
Inscrit : 13/01/2011
Membre no 55.776



Salut,

Mon PC fonctionne sous Windows XP édition familiale.

Dans Program Files, j'ai bien Ri4m, mais toutefois il n'y a pas d'icone pour démarrer (ou ouvrir ce programme).


Merci
Aller en haut de la page
 
+Citer le message
SG1
posté 15/01/2011 10:50
Message #6


Producteur
Icône de groupe

Groupe : Rédacteurs
Messages : 6.271
Inscrit : 08/10/2004
Lieu : Un coin perdu du Gers (32)
Membre no 4.657



Bonjour,

Citation
Dans Program Files, j'ai bien Ri4m, mais toutefois il n'y a pas d'icone pour démarrer (ou ouvrir ce programme).

En clair, il n'y a pas l'executable : Ripp-it_AM.exe

Si c'est bien ce que je crois, tu dois avoir ton logiciel Antivirus qui a bloqué l'installation sans ton accord...

Pour info, Ri4m ne contient pas de virus, mais il est crypté. De ce fait, certains antivirus, ne pouvant pas lire le code, le déclare comme étant un virus.
Tu devras donc le signaler à ton antivirus pour que l'installation se passe sans problème...

Quel est ton Antivirus ?

@+

Ce message a été modifié par SG1 - 15/01/2011 10:50.
Aller en haut de la page
 
+Citer le message
roetjas
posté 15/01/2011 23:38
Message #7


Ouvreur
Icône de groupe

Groupe : Membres
Messages : 4
Inscrit : 13/01/2011
Membre no 55.776



Salut,


Mon anti-virus est AVG.


Merci
Aller en haut de la page
 
+Citer le message

Fichier vidéo en format Matroska


Reply to this topicStart new topic
1 utilisateur(s) sur ce sujet (1 invité(s) et 0 utilisateur(s) anonyme(s))
0 membre(s) :

 

Modes d'affichage: Standard ·


Regrouper

> Discussions similaires à la discussion "Fichier vidéo en format Matroska"

Sujet Réponses
Vidéo sur Ipod 5
Format WTV convertion pour édition... 10
Formatage impossible avec lecteur enregistreur LG 0
vidéo accélérée 8
fichier .ts en dvdrip 5
Format AVCHD 3
fichier iso + sous titres 7
Formateur MAO vous salut 0
vidéo sur psp 1
Fichiers DVR: encodables en AVI ? 5

> Sujets récents

Sujets
Firmwares RFPlayer 1000 Domotique
EXTRAIRE PISTE AUDIO D'UN FICHIER VIDEO .MKV
Convertir WAV en MP3
Film à retrouver
Tuto Convertir un DVD en MP4 - DVD en MP4
Mkvmerge : Comment différencier les pistes audio anglaise / françaises ?
Ripper DVD en 50 FPS (simplement)
L'actu des logiciels pour la vidéo
test2
Why Ripp-it(ing) After Me and why Ripp-it(ing) For Me ? So then what's the third Ripp-it(ing) part ?
test
Reencodage vidéo
Windows10 et RIAM
améliorer le son d'un divx
Compression d'un MKV sans perte de qualité ?

RSS Nous sommes le : 30/05/2020 02:02
Ripp-It - Le site - Glossaire Audio Vidéo - Versions Rippit - Présentation - Tutoriaux divx - Télécharger Ripp-It - Ripper DVD
Forum Vidéo DivX - Ripp-It - Plan du site
Forum PSP - Forum iPod - Forum Mobile - Forum cinéma - Ripit4ME - Contact

Foot
Forum Ri4m™ © 2019 Ri4m™ - Enregistré à la CNIL sous le numéro 1081457